[ オンエアリストに戻る ]
TITLE "Heavy Metal Syndicate #869"
FILE "2007-10-07.mp3" WAVE
  TRACK 01 AUDIO
    TITLE "CRACK THE RIDDLE / KILL IT"
    PERFORMER "HELLOWEEN : Gambling with the Devil"
    INDEX 01 00:00:00
    INDEX 02 00:51:27

  TRACK 02 AUDIO
    TITLE "THE RUNNING FREE"
    PERFORMER "COHEED AND CAMBRIA : No World for Tomorrow"
    INDEX 01 10:34:26

  TRACK 03 AUDIO
    TITLE "Reissue: WORLD OF CONFLICT"
    PERFORMER "FIREWIND : Between Heaven and Hell (2007 reissue)"
    INDEX 01 16:58:49

  TRACK 04 AUDIO
    TITLE "KARMA"
    PERFORMER "STEVE GRIMMETT : Personal Crisis"
    INDEX 01 24:43:17

  TRACK 05 AUDIO
    TITLE "ARRIVAL OF LOVE"
    PERFORMER "CIRCUS MAXIMUS : Isolate"
    INDEX 01 30:48:20

  TRACK 06 AUDIO
    TITLE "Classic rock: FIRE"
    PERFORMER "JIMI HENDRIX EXPERIENCE : Are You Experienced (Digitally remastered)"
    INDEX 01 51:14:37


SEO [PR] おまとめローン 冷え性対策 坂本龍馬 動画掲示板 レンタルサーバー SEO