[ オンエアリストに戻る ]
TITLE "Heavy Metal Syndicate #868"
FILE "2007-09-30.mp3" WAVE
  TRACK 01 AUDIO
    TITLE "Reissue: BETWEEN HEAVEN AND HELL"
    PERFORMER "FIREWIND : Between Heaven and Hell (2007 reissue)"
    INDEX 01 00:00:00

  TRACK 02 AUDIO
    TITLE "PAINT A NEW WORLD"
    PERFORMER "HELLOWEEN : Gambling with the Devil"
    INDEX 01 13:21:57

  TRACK 03 AUDIO
    TITLE "FINAL FORTUNE"
    PERFORMER "HELLOWEEN : Gambling with the Devil"
    INDEX 01 17:48:60

  TRACK 04 AUDIO
    TITLE "I FLY"
    PERFORMER "ARI KOIVUNEN : Fuel for the Fire"
    INDEX 01 25:47:11

  TRACK 05 AUDIO
    TITLE "ALMOST EASY"
    PERFORMER "AVENGED SEVENFOLD : Avenged Sevenfold"
    INDEX 01 30:46:23

  TRACK 06 AUDIO
    TITLE "SWORN TO A GREAT DIVIDE"
    PERFORMER "SOILWORK : Sworn to a Great Divide"
    INDEX 01 36:21:13

  TRACK 07 AUDIO
    TITLE "Classic rock: THE JEAN GENIE"
    PERFORMER "DAVID BOWIE : Aladdin Sane (Digitally remastered)"
    INDEX 01 52:04:70


SEO [PR] おまとめローン 冷え性対策 坂本龍馬 動画掲示板 レンタルサーバー SEO