[ オンエアリストに戻る ]
TITLE "Heavy Metal Syndicate #867"
FILE "2007-09-23.mp3" WAVE
  TRACK 01 AUDIO
    TITLE "LOSING MY INSANITY"
    PERFORMER "ARI KOIVUNEN : Fuel for the Fire"
    INDEX 01 00:00:00

  TRACK 02 AUDIO
    TITLE "NEW REVELATION"
    PERFORMER "ASTRAL DOORS : New Revelation"
    INDEX 01 12:36:10

  TRACK 03 AUDIO
    TITLE "TOUCH OF LOVE"
    PERFORMER "SOUL DOCTOR : Blood Runs Cold"
    INDEX 01 16:59:31

  TRACK 04 AUDIO
    TITLE "RIGHT NOW"
    PERFORMER "HELLFUELED : Memories in Black"
    INDEX 01 22:43:62

  TRACK 05 AUDIO
    TITLE "BLEED WELL"
    PERFORMER "HIM : Venus Doom"
    INDEX 01 27:52:74

  TRACK 06 AUDIO
    TITLE "FEAR OF A BLANK PLANET (radio edit)"
    PERFORMER "PORCUPINE TREE : Nil Recurring (EP)"
    INDEX 01 34:10:11

  TRACK 07 AUDIO
    TITLE "Classic rock: 18 AND LIFE"
    PERFORMER "SKID ROW : Skid Row"
    INDEX 01 51:08:11


SEO [PR] おまとめローン 冷え性対策 坂本龍馬 動画掲示板 レンタルサーバー SEO