[ オンエアリストに戻る ]
TITLE "Heavy Metal Syndicate #866"
FILE "2007-09-16.mp3" WAVE
  TRACK 01 AUDIO
    TITLE "AS LONG AS I FALL (Radio Mix)"
    PERFORMER "HELLOWEEN : As Long as I Fall (single)"
    INDEX 01 00:00:00

  TRACK 02 AUDIO
    TITLE "GOD OF WAR"
    PERFORMER "ARI KOIVUNEN : Fuel for the Fire"
    INDEX 01 10:31:10

  TRACK 03 AUDIO
    TITLE "VENUS DOOM"
    PERFORMER "HIM : Venus Doom"
    INDEX 01 15:35:62

  TRACK 04 AUDIO
    TITLE "FROZEN HEARTED"
    PERFORMER "HEARTLAND : Mind Your Head"
    INDEX 01 20:24:30

  TRACK 05 AUDIO
    TITLE "PENTECOSTAL BOUND"
    PERFORMER "ASTRAL DOORS : New Revelation"
    INDEX 01 24:09:54

  TRACK 06 AUDIO
    TITLE "VULTURES"
    PERFORMER "ARCH ENEMY : Rise of the Tyrant"
    INDEX 01 29:32:70

  TRACK 07 AUDIO
    TITLE "WISH YOU WERE HERE (Live 2006)"
    PERFORMER "DAVID GILMOUR : Remember That Night - Live at the Royal Albert Hall"
    INDEX 01 50:27:64


SEO [PR] おまとめローン 冷え性対策 坂本龍馬 動画掲示板 レンタルサーバー SEO