[ オンエアリストに戻る ]
TITLE "Heavy Metal Syndicate #865"
FILE "2007-09-09.mp3" WAVE
  TRACK 01 AUDIO
    TITLE "BLOOD RUNS COLD"
    PERFORMER "SOUL DOCTOR : Blood Runs Cold"
    INDEX 01 00:00:00

  TRACK 02 AUDIO
    TITLE "MONSTER"
    PERFORMER "HELLFUELED : Memories in Black"
    INDEX 01 10:13:37

  TRACK 03 AUDIO
    TITLE "(WE ARE) THE ROAD CREW (Live 2005)"
    PERFORMER "MOTORHEAD : Better Motorhead Than Dead - Live at Hammersmith"
    INDEX 01 14:57:12

  TRACK 04 AUDIO
    TITLE "SIGN OF FEAR"
    PERFORMER "PRIMAL FEAR : New Religion"
    INDEX 01 19:03:55

  TRACK 05 AUDIO
    TITLE "WHOEVER BRINGS THE NIGHT"
    PERFORMER "NIGHTWISH : Dark Passion Play"
    INDEX 01 25:04:46

  TRACK 06 AUDIO
    TITLE "CRITICAL ACCLAIM"
    PERFORMER "AVENGED SEVENFOLD : Avenged Sevenfold"
    INDEX 01 31:19:30

  TRACK 07 AUDIO
    TITLE "Classic rock: SAY WHAT YOU WILL"
    PERFORMER "FASTWAY : Fastway"
    INDEX 01 51:19:21


SEO [PR] おまとめローン 冷え性対策 坂本龍馬 動画掲示板 レンタルサーバー SEO