[ オンエアリストに戻る ]
TITLE "Heavy Metal Syndicate #864"
FILE "2007-09-02.mp3" WAVE
  TRACK 01 AUDIO
    TITLE "THE MOB RULES (Live 2007)"
    PERFORMER "HEAVEN & HELL : Live from Radio City Music Hall"
    INDEX 01 00:00:00

  TRACK 02 AUDIO
    TITLE "IN THIS SHALLOW GRAVE"
    PERFORMER "ARCH ENEMY : Rise of the Tyrant"
    INDEX 01 14:30:70

  TRACK 03 AUDIO
    TITLE "FOR PITY'S SAKE"
    PERFORMER "HEARTLAND : Mind Your Head"
    INDEX 01 21:11:24

  TRACK 04 AUDIO
    TITLE "HOW FAR IS HEAVEN?"
    PERFORMER "GREAT WHITE : Back to the Rhythm"
    INDEX 01 27:17:44

  TRACK 05 AUDIO
    TITLE "MASTER OF NIGHT"
    PERFORMER "HELLFUELED : Memories in Black"
    INDEX 01 34:16:20

  TRACK 06 AUDIO
    TITLE "Classic rock: THE COURT OF THE CRIMSON KING including THE RETURN OF THE FIRE WITCH"
    PERFORMER "KING CRIMSON : In the Court of the Crimson King (Digitally remastered)"
    INDEX 01 51:51:13


SEO [PR] おまとめローン 冷え性対策 坂本龍馬 動画掲示板 レンタルサーバー SEO