[ オンエアリストに戻る ]
TITLE "Heavy Metal Syndicate #863"
FILE "2007-08-26.mp3" WAVE
  TRACK 01 AUDIO
    TITLE "X-MAS IN HELL"
    PERFORMER "SIXX: A.M. : The Heroin Diaries Soundtrack"
    INDEX 01 00:00:00

  TRACK 02 AUDIO
    TITLE "LIFE IS BEAUTIFUL"
    PERFORMER "SIXX: A.M. : The Heroin Diaries Soundtrack"
    INDEX 01 02:06:25

  TRACK 03 AUDIO
    TITLE "ACE OF SPADES (Live 2005)"
    PERFORMER "MOTORHEAD : Better Motorhead Than Dead - Live at Hammersmith"
    INDEX 01 12:40:60

  TRACK 04 AUDIO
    TITLE "Introduction: SWEET CHILD O' MINE / 真夏のメタル福袋大喜利大会"
    PERFORMER "GUNS N' ROSES : Appetite for Destruction"
    INDEX 01 16:53:37

  TRACK 05 AUDIO
    TITLE "SEARCH GOES ON"
    PERFORMER "HELLFUELED : Memories in Black"
    INDEX 01 32:50:45

  TRACK 06 AUDIO
    TITLE "Classic rock: YOU'RE IN LOVE"
    PERFORMER "RATT : Invasion of Your Privacy"
    INDEX 01 52:49:56


SEO [PR] おまとめローン 冷え性対策 坂本龍馬 動画掲示板 レンタルサーバー SEO