[ オンエアリストに戻る ]
TITLE "Heavy Metal Syndicate #862"
FILE "2007-08-19.mp3" WAVE
  TRACK 01 AUDIO
    TITLE "DIE YOUNG (Live 2007)"
    PERFORMER "HEAVEN & HELL : Live from Radio City Music Hall"
    INDEX 01 00:00:00

  TRACK 02 AUDIO
    TITLE "THE LIE"
    PERFORMER "SOUL DOCTOR : Blood Runs Cold"
    INDEX 01 14:17:60

  TRACK 03 AUDIO
    TITLE "I WILL LIVE AGAIN"
    PERFORMER "ARCH ENEMY : Rise of the Tyrant"
    INDEX 01 21:36:41

  TRACK 04 AUDIO
    TITLE "FACE THE EMPTINESS"
    PERFORMER "PRIMAL FEAR : New Religion"
    INDEX 01 25:38:14

  TRACK 05 AUDIO
    TITLE "REBORN"
    PERFORMER "LORD : Ascendence"
    INDEX 01 32:11:62

  TRACK 06 AUDIO
    TITLE "Classic rock: LIVE AND LET DIE"
    PERFORMER "PAUL McCARTNEY and WINGS : Live and Let Die (Soundtrack)"
    INDEX 01 51:24:20


SEO [PR] おまとめローン 冷え性対策 坂本龍馬 動画掲示板 レンタルサーバー SEO