[ オンエアリストに戻る ]
TITLE "Heavy Metal Syndicate #861"
FILE "2007-08-12.mp3" WAVE
  TRACK 01 AUDIO
    TITLE "POWERTRIP"
    PERFORMER "HANOI ROCKS : Street Poetry"
    INDEX 01 00:00:00

  TRACK 02 AUDIO
    TITLE "RADIO SUPERSTAR"
    PERFORMER "FAITH AND FIRE : Accelerator"
    INDEX 01 11:16:18

  TRACK 03 AUDIO
    TITLE "THE LAST ENEMY"
    PERFORMER "ARCH ENEMY : Rise of the Tyrant"
    INDEX 01 16:26:13

  TRACK 04 AUDIO
    TITLE "AMARANTH"
    PERFORMER "NIGHTWISH : Dark Passion Play"
    INDEX 01 21:15:54

  TRACK 05 AUDIO
    TITLE "PASSION'S KILLING FLOOR"
    PERFORMER "HIM : Venus Doom"
    INDEX 01 25:34:13

  TRACK 06 AUDIO
    TITLE "THE HOCKEY SONG"
    PERFORMER "NUCLEAR ASSAULT : Third World Genocide"
    INDEX 01 31:28:25

  TRACK 07 AUDIO
    TITLE "PAPYRUS CONTAINING THE SPELL TO PRESERVE ITS POSSESSOR AGAINST ATTACKS FROM HE WHO IS IN THE WATER"
    PERFORMER "NILE : Ithyphallic"
    INDEX 01 34:00:04

  TRACK 08 AUDIO
    TITLE "Classic rock: HOLIDAY"
    PERFORMER "SCORPIONS : Lovedrive (Digitally remastered)"
    INDEX 01 48:30:22


SEO [PR] おまとめローン 冷え性対策 坂本龍馬 動画掲示板 レンタルサーバー SEO