[ オンエアリストに戻る ]
TITLE "Heavy Metal Syndicate #860"
FILE "2007-08-05.mp3" WAVE
  TRACK 01 AUDIO
    TITLE "BLOOD ON YOUR HANDS"
    PERFORMER "ARCH ENEMY : Rise of the Tyrant"
    INDEX 01 00:00:00

  TRACK 02 AUDIO
    TITLE "HYPERMOBILE"
    PERFORMER "HANOI ROCKS : Street Poetry"
    INDEX 01 13:14:29

  TRACK 03 AUDIO
    TITLE "CAN'T BE THE REAL THING"
    PERFORMER "GOTTHARD : The Call (single)"
    INDEX 01 18:27:12

  TRACK 04 AUDIO
    TITLE "THE KISS OF DAWN"
    PERFORMER "HIM : Venus Doom"
    INDEX 01 24:19:26

  TRACK 05 AUDIO
    TITLE "BACK TO THE RHYTHM"
    PERFORMER "GREAT WHITE : Back to the Rhythm"
    INDEX 01 28:35:45

  TRACK 06 AUDIO
    TITLE "DRAGONHEART"
    PERFORMER "IRON FIRE : Blade of Triumph"
    INDEX 01 33:32:00

  TRACK 07 AUDIO
    TITLE "Reissue: BE MY BABY"
    PERFORMER "BLUE OYSTER CULT : Spectres (2007 reissue)"
    INDEX 01 53:20:39


SEO [PR] おまとめローン 冷え性対策 坂本龍馬 動画掲示板 レンタルサーバー SEO