[ オンエアリストに戻る ]
TITLE "Heavy Metal Syndicate #859"
FILE "2007-07-29.mp3" WAVE
  TRACK 01 AUDIO
    TITLE "Message from Andre Matos"
    PERFORMER "ANDRE MATOS"
    INDEX 01 00:00:00

  TRACK 02 AUDIO
    TITLE "MENUETT / LETTING GO"
    PERFORMER "ANDRE MATOS : Time to Be Free"
    INDEX 01 00:32:43

  TRACK 03 AUDIO
    TITLE "HERE GOES MY HEAD AGAIN"
    PERFORMER "GREAT WHITE : Back to the Rhythm"
    INDEX 01 16:58:48

  TRACK 04 AUDIO
    TITLE "Introduction: WELCOME TO THE JUNGLE / ガンズ・アンド・ローゼズ来日こぼれ話"
    PERFORMER "GUNS N' ROSES : Appetite for Destruction"
    INDEX 01 22:38:23

  TRACK 05 AUDIO
    TITLE "YESTERDAYS (Live 1992)"
    PERFORMER "GUNS N' ROSES : Live Era '87-'93"
    INDEX 01 28:39:18

  TRACK 06 AUDIO
    TITLE "TOWARDS AND AGAINST"
    PERFORMER "AMORPHIS : Silent Waters"
    INDEX 01 34:26:31

  TRACK 07 AUDIO
    TITLE "HELL IS WITHIN"
    PERFORMER "DIMENSION ZERO : He Who Shall Not Bleed"
    INDEX 01 38:18:33

  TRACK 08 AUDIO
    TITLE "Classic rock: LOVE ME TWO TIMES (40th anniversary remix)"
    PERFORMER "DOORS : Strange Days (2007 reissue) / The Very Best of the Doors"
    INDEX 01 52:29:11


SEO [PR] おまとめローン 冷え性対策 坂本龍馬 動画掲示板 レンタルサーバー SEO