[ オンエアリストに戻る ]
TITLE "Heavy Metal Syndicate #858"
FILE "2007-07-22.mp3" WAVE
  TRACK 01 AUDIO
    TITLE "BYE BYE BEAUTIFUL"
    PERFORMER "NIGHTWISH : Dark Passion Play"
    INDEX 01 00:00:00

  TRACK 02 AUDIO
    TITLE "A SMILE FROM HEAVEN'S EYE"
    PERFORMER "RIDE THE SKY : New Protection"
    INDEX 01 14:32:02

  TRACK 03 AUDIO
    TITLE "DOMINATION"
    PERFORMER "SYMPHONY X : Paradise Lost"
    INDEX 01 18:40:10

  TRACK 04 AUDIO
    TITLE "HE WHO SHALL NOT BLEED"
    PERFORMER "DIMENSION ZERO : He Who Shall Not Bleed"
    INDEX 01 25:36:32

  TRACK 05 AUDIO
    TITLE "LET THE SUN SHINE"
    PERFORMER "MARCO MENDOZA : Live for Tomorrow"
    INDEX 01 29:32:70

  TRACK 06 AUDIO
    TITLE "FALSE GOSPEL"
    PERFORMER "DIVINE HERESY : Bleed the Fifth"
    INDEX 01 35:18:10

  TRACK 07 AUDIO
    TITLE "Classic rock: RACE WITH THE DEVIL"
    PERFORMER "GIRLSCHOOL : Demolition"
    INDEX 01 52:21:10


SEO [PR] おまとめローン 冷え性対策 坂本龍馬 動画掲示板 レンタルサーバー SEO