[ オンエアリストに戻る ]
TITLE "Heavy Metal Syndicate #857"
FILE "2007-07-15.mp3" WAVE
  TRACK 01 AUDIO
    TITLE "BASTARDS"
    PERFORMER "HARDCORE SUPERSTAR : Bastards (download single)"
    INDEX 01 00:00:00

  TRACK 02 AUDIO
    TITLE "LOADED"
    PERFORMER "CIRCUS DIABLO : Circus Diablo"
    INDEX 01 10:02:60

  TRACK 03 AUDIO
    TITLE "BLESS THE NIGHT (Live 2007)"
    PERFORMER "WIG WAM : Live in Tokyo (CD) / Made in Japan (DVD)"
    INDEX 01 13:26:50

  TRACK 04 AUDIO
    TITLE "VIPER"
    PERFORMER "AMARAN'S PLIGHT : Voice in the Light"
    INDEX 01 21:06:70

  TRACK 05 AUDIO
    TITLE "PARIAH"
    PERFORMER "DUNGEON : The Final Chapter"
    INDEX 01 27:04:40

  TRACK 06 AUDIO
    TITLE "BLEED THE FIFTH"
    PERFORMER "DIVINE HERESY : Bleed the Fifth"
    INDEX 01 34:02:40

  TRACK 07 AUDIO
    TITLE "Classic rock: OUT OF THE NIGHT"
    PERFORMER "GREAT WHITE : Out of the Night (EP)"
    INDEX 01 53:31:05


SEO [PR] おまとめローン 冷え性対策 坂本龍馬 動画掲示板 レンタルサーバー SEO