[ オンエアリストに戻る ]
TITLE "Heavy Metal Syndicate #856"
FILE "2007-07-08.mp3" WAVE
  TRACK 01 AUDIO
    TITLE "ROCK MY RIDE (Live 2007)"
    PERFORMER "WIG WAM : Live in Tokyo (CD) / Made in Japan (DVD)"
    INDEX 01 00:00:00

  TRACK 02 AUDIO
    TITLE "I REMEMBER NOW / ANARCHY-X / REVOLUTION CALLING (Live 2006)"
    PERFORMER "QUEENSRYCHE : Mindcrime at the Moore"
    INDEX 01 15:12:23

  TRACK 03 AUDIO
    TITLE "REDUCED TO NOTHINGNESS"
    PERFORMER "SERENITY : Words Untold & Dreams Unlived"
    INDEX 01 25:31:70

  TRACK 04 AUDIO
    TITLE "FALLEN CHILDREN"
    PERFORMER "PARADISE LOST : In Requiem"
    INDEX 01 32:05:70

  TRACK 05 AUDIO
    TITLE "Classic rock: OUT FOR LOVE"
    PERFORMER "SLAUGHTER : The Wild Life"
    INDEX 01 51:26:70


SEO [PR] おまとめローン 冷え性対策 坂本龍馬 動画掲示板 レンタルサーバー SEO