[ オンエアリストに戻る ]
TITLE "Heavy Metal Syndicate #855"
FILE "2007-07-01.mp3" WAVE
  TRACK 01 AUDIO
    TITLE "SPEAK (Live 2006)"
    PERFORMER "QUEENSRYCHE : Mindcrime at the Moore"
    INDEX 01 00:00:00

  TRACK 02 AUDIO
    TITLE "SEVEN"
    PERFORMER "SYMPHONY X : Paradise Lost"
    INDEX 01 14:09:20

  TRACK 03 AUDIO
    TITLE "GIVE PEACE A CHANCE"
    PERFORMER "AEROSMITH featuring SIERRA LEONE'S REFUGEE ALL STARS"
    Make Some Noise - The Amnesty International Campaign to Save Darfur (Compilation)
    INDEX 01 20:50:74

  TRACK 04 AUDIO
    TITLE "BE STRONG"
    PERFORMER "MAGNUM : Princess Alice and the Broken Arrow"
    INDEX 01 25:20:21

  TRACK 05 AUDIO
    TITLE "COME RIGHT BACK (Live 2005)"
    PERFORMER "COLOSSEUM : Live05"
    INDEX 01 31:06:67

  TRACK 06 AUDIO
    TITLE "REACH OUT"
    PERFORMER "NORTHER : No Way Back (EP)"
    INDEX 01 36:41:23

  TRACK 07 AUDIO
    TITLE "Classic rock: MY FINAL DAY"
    PERFORMER "OUTRAGE : The Final Day (Digitally remastered)"
    INDEX 01 52:00:40


SEO [PR] おまとめローン 冷え性対策 坂本龍馬 動画掲示板 レンタルサーバー SEO