[ オンエアリストに戻る ]
TITLE "Heavy Metal Syndicate #854"
FILE "2007-06-24.mp3" WAVE
  TRACK 01 AUDIO
    TITLE "MASTERCUTOR"
    PERFORMER "U.D.O. : Mastercutor"
    INDEX 01 00:00:00

  TRACK 02 AUDIO
    TITLE "FROZEN ANGEL"
    PERFORMER "NORTHER : No Way Back (EP)"
    INDEX 01 09:53:50

  TRACK 03 AUDIO
    TITLE "SILENT WATERS"
    PERFORMER "AMORPHIS : Silent Waters"
    INDEX 01 15:12:30

  TRACK 04 AUDIO
    TITLE "DIMENSIONS"
    PERFORMER "FREEDOM CALL : Dimensions"
    INDEX 01 24:14:60

  TRACK 05 AUDIO
    TITLE "FALLING DOWN"
    PERFORMER "VALENTINE : Falling Down in Misanthropolis"
    INDEX 01 28:51:60

  TRACK 06 AUDIO
    TITLE "ANSWERS (Live 2005)"
    PERFORMER "STEVE VAI : Sound Theories Vol. I & II"
    INDEX 01 35:23:30

  TRACK 07 AUDIO
    TITLE "CRASH BANG CRASH"
    PERFORMER "U.D.O. : Mastercutor"
    INDEX 01 50:40:20


SEO [PR] おまとめローン 冷え性対策 坂本龍馬 動画掲示板 レンタルサーバー SEO