[ オンエアリストに戻る ]
TITLE "Heavy Metal Syndicate #853"
FILE "2007-06-17.mp3" WAVE
  TRACK 01 AUDIO
    TITLE "NO QUESTIONS ASKED (Live Session Version)"
    PERFORMER "ANSWER : Rise (Special edition)"
    INDEX 01 00:00:00

  TRACK 02 AUDIO
    TITLE "PIONEERS"
    PERFORMER "FROM AUTUMN TO ASHES : Holding a Wolf by the Ears"
    INDEX 01 10:08:62

  TRACK 03 AUDIO
    TITLE "EVE OF SEDUCTION"
    PERFORMER "SYMPHONY X : Paradise Lost"
    INDEX 01 14:57:60

  TRACK 04 AUDIO
    TITLE "INNOCENT WORLD"
    PERFORMER "FREEDOM CALL : Dimensions"
    INDEX 01 21:45:40

  TRACK 05 AUDIO
    TITLE "DARK CELL"
    PERFORMER "DEADLOCK : Wolves"
    INDEX 01 27:18:36

  TRACK 06 AUDIO
    TITLE "EVA"
    PERFORMER "NIGHTWISH : Dark Passion Play"
    INDEX 01 33:42:29

  TRACK 07 AUDIO
    TITLE "Classic rock: THIS AIN'T THE SUMMER OF LOVE"
    PERFORMER "BLUE OYSTER CULT : Agents of Fortune (Digitally remastered)"
    INDEX 01 52:55:10


SEO [PR] おまとめローン 冷え性対策 坂本龍馬 動画掲示板 レンタルサーバー SEO