[ オンエアリストに戻る ]
TITLE "Heavy Metal Syndicate #852"
FILE "2007-06-10.mp3" WAVE
  TRACK 01 AUDIO
    TITLE "SUMMERTIME"
    PERFORMER "BON JOVI : Lost Highway"
    INDEX 01 00:00:00

  TRACK 02 AUDIO
    TITLE "I LOVE THIS TOWN"
    PERFORMER "BON JOVI : Lost Highway"
    INDEX 01 09:10:28

  TRACK 03 AUDIO
    TITLE "LOST HIGHWAY"
    PERFORMER "BON JOVI : Lost Highway"
    INDEX 01 13:46:62

  TRACK 04 AUDIO
    TITLE "SUBSTITUTE"
    PERFORMER "TNT : The New Territory"
    INDEX 01 19:43:51

  TRACK 05 AUDIO
    TITLE "OUT OF A DISTANT NIGHT (VOICES)"
    PERFORMER "VISION DIVINE : The 25th Hour"
    INDEX 01 23:11:56

  TRACK 06 AUDIO
    TITLE "FOOL FOR YOUR LOVING (Live 2006)"
    PERFORMER "WHITESNAKE : Live - In the Shadow of the Blues"
    INDEX 01 29:54:28

  TRACK 07 AUDIO
    TITLE "STILL I'M SAD / DAZED AND CONFUSED (Live 2006)"
    PERFORMER "YARDBIRDS : Live at B.B. King Blues Club"
    INDEX 01 50:19:17


SEO [PR] おまとめローン 冷え性対策 坂本龍馬 動画掲示板 レンタルサーバー SEO