[ オンエアリストに戻る ]
TITLE "Heavy Metal Syndicate #851"
FILE "2007-06-03.mp3" WAVE
  TRACK 01 AUDIO
    TITLE "WE GOT IT GOING ON"
    PERFORMER "BON JOVI : Lost Highway (with Big & Rich)"
    INDEX 01 00:00:00

  TRACK 02 AUDIO
    TITLE "SWEET EMOTION"
    PERFORMER "ANSWER : Rise (Special edition)"
    INDEX 01 12:54:55

  TRACK 03 AUDIO
    TITLE "TROUBLE BOYS"
    PERFORMER "HANOI ROCKS : Fashion (single)"
    INDEX 01 16:00:70

  TRACK 04 AUDIO
    TITLE "THE PROMISE"
    PERFORMER "KRYPTERIA : Bloodangel's Cry"
    INDEX 01 21:10:21

  TRACK 05 AUDIO
    TITLE "RUNNING RIOT"
    PERFORMER "IRON SAVIOR : Megatropolis"
    INDEX 01 25:03:35

  TRACK 06 AUDIO
    TITLE "MY OWN SIN"
    PERFORMER "DOGPOUND : III"
    INDEX 01 31:13:63

  TRACK 07 AUDIO
    TITLE "ON THE OFFENSIVE"
    PERFORMER "FROM AUTUMN TO ASHES : Holding a Wolf by the Ears"
    INDEX 01 36:09:74

  TRACK 08 AUDIO
    TITLE "SOS"
    PERFORMER "VALENTINE : Falling Down in Misanthropolis"
    INDEX 01 52:56:69


SEO [PR] おまとめローン 冷え性対策 坂本龍馬 動画掲示板 レンタルサーバー SEO