[ オンエアリストに戻る ]
TITLE "Heavy Metal Syndicate #850"
FILE "2007-05-27.mp3" WAVE
  TRACK 01 AUDIO
    TITLE "NEON KNIGHTS (Live 1982)"
    PERFORMER "BLACK SABBATH : Live at Hammersmith Odeon"
    INDEX 01 00:00:00

  TRACK 02 AUDIO
    TITLE "KEEP BELIEVIN'"
    PERFORMER "ANSWER : Rise (Special edition)"
    INDEX 01 10:46:01

  TRACK 03 AUDIO
    TITLE "A PERFECT DAY"
    PERFORMER "NUCLEAR BLAST ALLSTARS : Into the Light - 20 Years Nuclear Blast (feat. Andi Deris)"
    INDEX 01 16:11:64

  TRACK 04 AUDIO
    TITLE "WILD LIFE"
    PERFORMER "TNT : The New Territory"
    INDEX 01 21:32:49

  TRACK 05 AUDIO
    TITLE "OUT OF CONTROL"
    PERFORMER "WHITE WOLF : Victim of the Spotlight"
    INDEX 01 26:03:23

  TRACK 06 AUDIO
    TITLE "FORSAKEN"
    PERFORMER "DREAM THEATER : Systematic Chaos"
    INDEX 01 32:07:11

  TRACK 07 AUDIO
    TITLE "Classic rock: THUNDER AND RAIN PT. 1"
    PERFORMER "VICIOUS RUMORS : Word of Mouth"
    INDEX 01 48:53:61

  TRACK 08 AUDIO
    TITLE "Classic rock: THUNDER AND RAIN PT. 2"
    PERFORMER "VICIOUS RUMORS : Word of Mouth"
    INDEX 01 52:11:37


SEO [PR] おまとめローン 冷え性対策 坂本龍馬 動画掲示板 レンタルサーバー SEO