[ オンエアリストに戻る ]
TITLE "Heavy Metal Syndicate #849"
FILE "2007-05-20.mp3" WAVE
  TRACK 01 AUDIO
    TITLE "11 SILVER"
    PERFORMER "OZZY OSBOURNE : Black Rain"
    INDEX 01 00:00:00

  TRACK 02 AUDIO
    TITLE "FASHION"
    PERFORMER "HANOI ROCKS : Fashion (single)"
    INDEX 01 12:37:25

  TRACK 03 AUDIO
    TITLE "THE OSCAR GOES TO..."
    PERFORMER "GOTTHARD : Domino Effect"
    INDEX 01 17:12:05

  TRACK 04 AUDIO
    TITLE "LET ME FEEL YOUR POWER"
    PERFORMER "SAXON : The Inner Sanctum"
    INDEX 01 22:03:25

  TRACK 05 AUDIO
    TITLE "I CAN'T BREATHE"
    PERFORMER "KRYPTERIA : Bloodangel's Cry"
    INDEX 01 26:35:12

  TRACK 06 AUDIO
    TITLE "DETH KULT SOCIAL CLUB"
    PERFORMER "FROM AUTUMN TO ASHES : Holding a Wolf by the Ears"
    INDEX 01 32:18:46

  TRACK 07 AUDIO
    TITLE "LOVE AIN'T NO STRANGER (Live 2006)"
    PERFORMER "WHITESNAKE : Live - In the Shadow of the Blues"
    INDEX 01 50:11:69


SEO [PR] おまとめローン 冷え性対策 坂本龍馬 動画掲示板 レンタルサーバー SEO