[ オンエアリストに戻る ]
TITLE "Heavy Metal Syndicate #848"
FILE "2007-05-13.mp3" WAVE
  TRACK 01 AUDIO
    TITLE "CONSTANT MOTION"
    PERFORMER "DREAM THEATER : Systematic Chaos"
    INDEX 01 00:00:00

  TRACK 02 AUDIO
    TITLE "THE VICE"
    PERFORMER "SONATA ARCTICA : Unia"
    INDEX 01 12:44:39

  TRACK 03 AUDIO
    TITLE "HERE FOR YOU"
    PERFORMER "OZZY OSBOURNE : Black Rain"
    INDEX 01 19:53:13

  TRACK 04 AUDIO
    TITLE "CALL OUT TO THE WORLD"
    PERFORMER "NOCTURNAL RITES : The 8th Sin"
    INDEX 01 26:19:65

  TRACK 05 AUDIO
    TITLE "SILENCE OF THE DARKNESS"
    PERFORMER "KAMELOT : Ghost Opera"
    INDEX 01 30:18:31

  TRACK 06 AUDIO
    TITLE "CONFESSION"
    PERFORMER "7 DAYS : The Weight of the World"
    INDEX 01 35:42:22

  TRACK 07 AUDIO
    TITLE "Classic rock: KEEP YOURSELF ALIVE"
    PERFORMER "QUEEN : Queen (Digitally remastered)"
    INDEX 01 52:15:11


SEO [PR] おまとめローン 冷え性対策 坂本龍馬 動画掲示板 レンタルサーバー SEO