[ オンエアリストに戻る ]
TITLE "Heavy Metal Syndicate #847"
FILE "2007-05-06.mp3" WAVE
  TRACK 01 AUDIO
    TITLE "MASTER OF ILLUSION"
    PERFORMER "GOTTHARD : Domino Effect"
    INDEX 01 00:00:00

  TRACK 02 AUDIO
    TITLE "NEED FOR SPEED"
    PERFORMER "SAXON : The Inner Sanctum"
    INDEX 01 09:36:30

  TRACK 03 AUDIO
    TITLE "YOU'RE DEAD"
    PERFORMER "MEGADETH : United Abominations"
    INDEX 01 13:28:42

  TRACK 04 AUDIO
    TITLE "SHOW YOUR FACE"
    PERFORMER "VALENTINE : Falling Down in Misanthropolis"
    INDEX 01 19:30:20

  TRACK 05 AUDIO
    TITLE "ALL I WANT IS YOU (Radio Version)"
    PERFORMER "WHITESNAKE : All I Want Is You (single)"
    INDEX 01 26:08:40

  TRACK 06 AUDIO
    TITLE "LOS ANGELES"
    PERFORMER "69 EYES : Angels"
    INDEX 01 31:41:47

  TRACK 07 AUDIO
    TITLE "Classic rock: SYLVIA"
    PERFORMER "FOCUS : Focus III (Digitally remastered)"
    INDEX 01 51:02:50


SEO [PR] おまとめローン 冷え性対策 坂本龍馬 動画掲示板 レンタルサーバー SEO