[ オンエアリストに戻る ]
TITLE "Heavy Metal Syndicate #846"
FILE "2007-04-29.mp3" WAVE
  TRACK 01 AUDIO
    TITLE "IN BLACK AND WHITE"
    PERFORMER "SONATA ARCTICA : Unia"
    INDEX 01 00:00:00

  TRACK 02 AUDIO
    TITLE "ONE MORE MAGIC POTION"
    PERFORMER "ENSIFERUM : Victory Songs"
    INDEX 01 14:34:14

  TRACK 03 AUDIO
    TITLE "NEVER WALK ALONE...A CALL TO ARMS"
    PERFORMER "MEGADETH : United Abominations"
    INDEX 01 20:12:60

  TRACK 04 AUDIO
    TITLE "ALL IS WRONG"
    PERFORMER "SKYLARK : Divine Gates part III - The Last Gate"
    INDEX 01 26:02:60

  TRACK 05 AUDIO
    TITLE "MALIGNANT NARCISSISM"
    PERFORMER "RUSH : Snakes & Arrows"
    INDEX 01 31:05:20

  TRACK 06 AUDIO
    TITLE "IRON SWAN"
    PERFORMER "SWORD : Age of Winters"
    INDEX 01 35:16:20

  TRACK 07 AUDIO
    TITLE "LIGHT IN THE DARK"
    PERFORMER "TWO OF A KIND : Two of a Kind"
    INDEX 01 51:51:71


SEO [PR] おまとめローン 冷え性対策 坂本龍馬 動画掲示板 レンタルサーバー SEO