[ オンエアリストに戻る ]
TITLE "Heavy Metal Syndicate #845"
FILE "2007-04-22.mp3" WAVE
  TRACK 01 AUDIO
    TITLE "WASHINGTON IS NEXT!"
    PERFORMER "MEGADETH : United Abominations"
    INDEX 01 00:00:00

  TRACK 02 AUDIO
    TITLE "SWINELORD"
    PERFORMER "TWILIGHTNING : Swinelords"
    INDEX 01 16:46:53

  TRACK 03 AUDIO
    TITLE "I DON'T WANNA STOP"
    PERFORMER "OZZY OSBOURNE : Black Rain"
    INDEX 01 23:28:00

  TRACK 04 AUDIO
    TITLE "MISERY'S CROWN"
    PERFORMER "DARK TRANQUILLITY : Fiction"
    INDEX 01 29:59:62

  TRACK 05 AUDIO
    TITLE "FEAR OF A BLANK PLANET"
    PERFORMER "PORCUPINE TREE : Fear of a Blank Planet"
    INDEX 01 35:29:50

  TRACK 06 AUDIO
    TITLE "DREAM A LITTLE DREAM OF ME"
    PERFORMER "BLIND GUARDIAN : Another Stranger Me (single)"
    INDEX 01 52:30:60


SEO [PR] おまとめローン 冷え性対策 坂本龍馬 動画掲示板 レンタルサーバー SEO