[ オンエアリストに戻る ]
TITLE "Heavy Metal Syndicate #844"
FILE "2007-04-15.mp3" WAVE
  TRACK 01 AUDIO
    TITLE "SLEEPWALKER"
    PERFORMER "MEGADETH : United Abominations"
    INDEX 01 00:00:00

  TRACK 02 AUDIO
    TITLE "SHE'S ALL THAT"
    PERFORMER "WILDHEARTS : The Wildhearts"
    INDEX 01 11:49:40

  TRACK 03 AUDIO
    TITLE "OUT IN THE FIELDS"
    PERFORMER "SONATA ARCTICA : Unia"
    INDEX 01 15:55:50

  TRACK 04 AUDIO
    TITLE "CROSSROADS"
    PERFORMER "LABYRINTH : 6 Days to Nowhere"
    INDEX 01 20:46:00

  TRACK 05 AUDIO
    TITLE "PERFECT SKIN"
    PERFORMER "69 EYES : Angels"
    INDEX 01 24:46:40

  TRACK 06 AUDIO
    TITLE "BARAEL'S BLADE"
    PERFORMER "SWORD : Age of Winters"
    INDEX 01 30:59:21

  TRACK 07 AUDIO
    TITLE "Classic rock: MELINDA (MORE OR LESS)"
    PERFORMER "CURVED AIR : Phantasmagoria (Digitally remastered)"
    INDEX 01 51:53:30


SEO [PR] おまとめローン 冷え性対策 坂本龍馬 動画掲示板 レンタルサーバー SEO