[ オンエアリストに戻る ]
TITLE "Heavy Metal Syndicate #843"
FILE "2007-04-08.mp3" WAVE
  TRACK 01 AUDIO
    TITLE "PAID IN FULL"
    PERFORMER "SONATA ARCTICA : Unia"
    INDEX 01 00:00:00

  TRACK 02 AUDIO
    TITLE "REFLECTION OF THE CUCKOO"
    PERFORMER "TWILIGHTNING : Swinelords"
    INDEX 01 12:09:30

  TRACK 03 AUDIO
    TITLE "SHADOW OF THE WIND"
    PERFORMER "BLACK SABBATH : The Dio Years"
    INDEX 01 18:34:23

  TRACK 04 AUDIO
    TITLE "NOTHING TO NO ONE"
    PERFORMER "DARK TRANQUILLITY : Fiction"
    INDEX 01 25:12:33

  TRACK 05 AUDIO
    TITLE "HELLYEAH"
    PERFORMER "HELLYEAH : Hellyeah"
    INDEX 01 33:15:34

  TRACK 06 AUDIO
    TITLE "JUDGEMENT"
    PERFORMER "DOUBLE DEALER : Desert of Lost Souls"
    INDEX 01 49:32:70


SEO [PR] おまとめローン 冷え性対策 坂本龍馬 動画掲示板 レンタルサーバー SEO