[ オンエアリストに戻る ]
TITLE "Heavy Metal Syndicate #842"
FILE "2007-04-01.mp3" WAVE
  TRACK 01 AUDIO
    TITLE "EAR IN THE WALL"
    PERFORMER "BLACK SABBATH : The Dio Years"
    INDEX 01 00:00:00

  TRACK 02 AUDIO
    TITLE "THE REVOLUTION WILL BE TELEVISED"
    PERFORMER "WILDHEARTS : The Wildhearts"
    INDEX 01 12:33:09

  TRACK 03 AUDIO
    TITLE "(YOU WANT TO) MAKE A MEMORY"
    PERFORMER "BON JOVI : (You Want to) Make a Memory (single)"
    INDEX 01 18:45:04

  TRACK 04 AUDIO
    TITLE "NEVER SAY DIE"
    PERFORMER "69 EYES : Angels"
    INDEX 01 25:41:72

  TRACK 05 AUDIO
    TITLE "NOT ALONE"
    PERFORMER "ALL THAT REMAINS : The Fall of Ideals"
    INDEX 01 37:03:21

  TRACK 06 AUDIO
    TITLE "Classic rock: ELECTRIC SUN"
    PERFORMER "ELECTRIC SUN : Earthquake (Digitally remastered)"
    INDEX 01 50:58:10


SEO [PR] おまとめローン 冷え性対策 坂本龍馬 動画掲示板 レンタルサーバー SEO