[ オンエアリストに戻る ]
TITLE "Heavy Metal Syndicate #841"
FILE "2007-03-25.mp3" WAVE
  TRACK 01 AUDIO
    TITLE "SLEIPNIR"
    PERFORMER "MANOWAR : Gods of War"
    INDEX 01 00:00:00

  TRACK 02 AUDIO
    TITLE "THE TERRIBLE ONE"
    PERFORMER "GRAVE DIGGER : Liberty or Death"
    INDEX 01 13:57:20

  TRACK 03 AUDIO
    TITLE "MADALAINE"
    PERFORMER "WINGER : Demo Anthology"
    INDEX 01 19:53:17

  TRACK 04 AUDIO
    TITLE "BLIND (Live 2006)"
    PERFORMER "KORN : MTV Unplugged"
    INDEX 01 26:15:46

  TRACK 05 AUDIO
    TITLE "SURVIVALISM"
    PERFORMER "NINE INCH NAILS : Year Zero"
    INDEX 01 30:34:15

  TRACK 06 AUDIO
    TITLE "Reissue: DIAL M FOR MURDER"
    PERFORMER "BLUE OYSTER CULT : Spectres (2007 reissue)"
    INDEX 01 37:24:20

  TRACK 07 AUDIO
    TITLE "Classic rock: ROCK STEADY"
    PERFORMER "BAD COMPANY : Bad Company (Digitally remastered)"
    INDEX 01 50:28:68


SEO [PR] おまとめローン 冷え性対策 坂本龍馬 動画掲示板 レンタルサーバー SEO