[ オンエアリストに戻る ]
TITLE "Heavy Metal Syndicate #840"
FILE "2007-03-18.mp3" WAVE
  TRACK 01 AUDIO
    TITLE "FAR CRY"
    PERFORMER "RUSH : Snakes & Arrows"
    INDEX 01 00:00:00

  TRACK 02 AUDIO
    TITLE "LOKI GOD OF FIRE"
    PERFORMER "MANOWAR : Gods of War"
    INDEX 01 09:04:40

  TRACK 03 AUDIO
    TITLE "COUPLE SUICIDE"
    PERFORMER "ANNIHILATOR : Metal"
    INDEX 01 13:55:52

  TRACK 04 AUDIO
    TITLE "THIS CALLING"
    PERFORMER "ALL THAT REMAINS : The Fall of Ideals"
    INDEX 01 20:45:70

  TRACK 05 AUDIO
    TITLE "OCEAN OF BLOOD"
    PERFORMER "GRAVE DIGGER : Liberty or Death"
    INDEX 01 26:03:10

  TRACK 06 AUDIO
    TITLE "Reissue: INTRO-JUICING / BIG HORN BREAKDOWN"
    PERFORMER "KEITH EMERSON : Honky"
    INDEX 01 34:02:60
    INDEX 02 34:27:06

  TRACK 07 AUDIO
    TITLE "Classic rock: VIDEO KILLED THE RADIO STAR"
    PERFORMER "BUGGLES : The Age of Plastic (Digitally remastered)"
    INDEX 01 51:57:10


SEO [PR] おまとめローン 冷え性対策 坂本龍馬 動画掲示板 レンタルサーバー SEO