[ オンエアリストに戻る ]
TITLE "Heavy Metal Syndicate #839"
FILE "2007-03-11.mp3" WAVE
  TRACK 01 AUDIO
    TITLE "THE DEVIL CRIED"
    PERFORMER "BLACK SABBATH : The Dio Years"
    INDEX 01 00:00:00

  TRACK 02 AUDIO
    TITLE "KING OF KINGS"
    PERFORMER "MANOWAR : Gods of War"
    INDEX 01 13:44:39

  TRACK 03 AUDIO
    TITLE "DO YOU BELIEVE?"
    PERFORMER "PHILIP SAYCE : Silver Wheel of Stars"
    INDEX 01 18:59:10

  TRACK 04 AUDIO
    TITLE "TIME OF THE SEASON"
    PERFORMER "SHAW BLADES : Influence"
    INDEX 01 25:52:22

  TRACK 05 AUDIO
    TITLE "CALIFORNIA DREAMIN'"
    PERFORMER "SHAW BLADES : Influence"
    INDEX 01 29:38:60

  TRACK 06 AUDIO
    TITLE "INTO THE BLACK"
    PERFORMER "NAGLFAR : Harvest"
    INDEX 01 34:16:32

  TRACK 07 AUDIO
    TITLE "Classic rock: YOUNG BLOOD (monitor mix / early vocals)"
    PERFORMER "WHITESNAKE : Saints & Sinners (2007 reissue)"
    INDEX 01 52:30:20


SEO [PR] おまとめローン 冷え性対策 坂本龍馬 動画掲示板 レンタルサーバー SEO