[ オンエアリストに戻る ]
TITLE "Heavy Metal Syndicate #838"
FILE "2007-03-04.mp3" WAVE
  TRACK 01 AUDIO
    TITLE "Reissue: ME 262 (Live 1978)"
    PERFORMER "BLUE OYSTER CULT : Some Enchanted Evening (2007 reissue)"
    INDEX 01 00:00:00

  TRACK 02 AUDIO
    TITLE "UNHOLY WARCRY (Live 2005)"
    PERFORMER "RHAPSODY OF FIRE : Live in Canada 2005 - The Dark Secret"
    INDEX 01 12:11:13

  TRACK 03 AUDIO
    TITLE "WISDOM OF THE KINGS (Live 2005)"
    PERFORMER "RHAPSODY OF FIRE : Live in Canada 2005 - The Dark Secret"
    INDEX 01 17:44:25

  TRACK 04 AUDIO
    TITLE "I'M NOT AFRAID"
    PERFORMER "PINK CREAM 69 : In10sity"
    INDEX 01 23:52:70

  TRACK 05 AUDIO
    TITLE "CLOWN PARADE"
    PERFORMER "ANNIHILATOR : Metal"
    INDEX 01 29:05:14

  TRACK 06 AUDIO
    TITLE "RADIO SUPERSTAR"
    PERFORMER "FAITH AND FIRE : Accelerator"
    INDEX 01 36:54:10

  TRACK 07 AUDIO
    TITLE "Classic rock: DANCE THE NIGHT AWAY"
    PERFORMER "VAN HALEN : Van Halen II (Digitally remastered)"
    INDEX 01 51:39:37


SEO [PR] おまとめローン 冷え性対策 坂本龍馬 動画掲示板 レンタルサーバー SEO