[ オンエアリストに戻る ]
TITLE "Heavy Metal Syndicate #836"
FILE "2007-02-18.mp3" WAVE
  TRACK 01 AUDIO
    TITLE "FUTURE WORLD (Live 2006)"
    PERFORMER "HELLOWEEN : Keeper of the Seven Keys The Legacy - World Tour 2005/2006"
    INDEX 01 00:00:00

  TRACK 02 AUDIO
    TITLE "GIMME SOME MORE"
    PERFORMER "PHILIP SAYCE : Silver Wheel of Stars"
    INDEX 01 17:56:70

  TRACK 03 AUDIO
    TITLE "SAVE YOURSELF"
    PERFORMER "COLOUR : Between Earth & Sky"
    INDEX 01 21:10:00

  TRACK 04 AUDIO
    TITLE "AMERICA"
    PERFORMER "PAIN OF SALVATION : Scarsick"
    INDEX 01 26:52:15

  TRACK 05 AUDIO
    TITLE "FLIES & LIES"
    PERFORMER "RAINTIME : Flies & Lies"
    INDEX 01 32:42:70

  TRACK 06 AUDIO
    TITLE "Classic rock: TWILIGHT"
    PERFORMER "ELECTRIC LIGHT ORCHESTRA : Time (Digitally remastered)"
    INDEX 01 52:05:10


SEO [PR] おまとめローン 冷え性対策 坂本龍馬 動画掲示板 レンタルサーバー SEO