[ オンエアリストに戻る ]
TITLE "Heavy Metal Syndicate #835"
FILE "2007-02-11.mp3" WAVE
  TRACK 01 AUDIO
    TITLE "DRAMA QUEEN"
    PERFORMER "NIGHT RANGER : Hole in the Sun"
    INDEX 01 00:00:00

  TRACK 02 AUDIO
    TITLE "SOUL SURVIVOR (Live 2006)"
    PERFORMER "RAGE : Full Moon in St. Petersburg"
    INDEX 01 11:17:29

  TRACK 03 AUDIO
    TITLE "WAITING FOR AN ALIBI (Live at the Liquidroom in Tokyo, January 23, 2007)"
    PERFORMER "PAUL GILBERT : (for Promotional Use Only)"
    INDEX 01 15:03:15

  TRACK 04 AUDIO
    TITLE "DEVIL'S GOT A HOLDA ME"
    PERFORMER "COLOUR : Between Earth & Sky"
    INDEX 01 20:59:31

  TRACK 05 AUDIO
    TITLE "THE GIRL IS ALRIGHT"
    PERFORMER "THUNDER : Robert Johnson's Tombstone"
    INDEX 01 25:34:11

  TRACK 06 AUDIO
    TITLE "PROFANITY"
    PERFORMER "DESTRUCTION : Thrash Anthems"
    INDEX 01 31:43:32

  TRACK 07 AUDIO
    TITLE "Classic rock: L'ESTASI DELL'ORO (THE ECSTASY OF GOLD)"
    PERFORMER "ENNIO MORRICONE : Il buono, il brutto, il cattivo (The Good, the Bad and the Ugly) (Soundtrack)"
    INDEX 01 52:32:35


SEO [PR] おまとめローン 冷え性対策 坂本龍馬 動画掲示板 レンタルサーバー SEO