[ オンエアリストに戻る ]
TITLE "Heavy Metal Syndicate #834"
FILE "2007-02-04.mp3" WAVE
  TRACK 01 AUDIO
    TITLE "THE ECSTASY OF GOLD"
    PERFORMER "METALLICA : We All Love Ennio Morricone (Compilation)"
    INDEX 01 00:00:00

  TRACK 02 AUDIO
    TITLE "CAN'T YOU HEAR IT CALL"
    PERFORMER "COLOUR : Between Earth & Sky"
    INDEX 01 15:00:36

  TRACK 03 AUDIO
    TITLE "SECRET SIGNS"
    PERFORMER "DREAMLAND : Eye for an Eye"
    INDEX 01 20:22:29

  TRACK 04 AUDIO
    TITLE "SPIRITS"
    PERFORMER "METALIUM : Nothing to Undo -Chapter Six-"
    INDEX 01 36:08:01

  TRACK 05 AUDIO
    TITLE "Classic rock: HEAVEN CAN WAIT"
    PERFORMER "MEAT LOAF : Bat Out of Hell (Digitally remastered)"
    INDEX 01 51:38:07


SEO [PR] おまとめローン 冷え性対策 坂本龍馬 動画掲示板 レンタルサーバー SEO