[ オンエアリストに戻る ]
TITLE "Heavy Metal Syndicate #833"
FILE "2007-01-28.mp3" WAVE
  TRACK 01 AUDIO
    TITLE "POWER (Live 2006)"
    PERFORMER "HELLOWEEN : Keeper of the Seven Keys The Legacy - World Tour 2005/2006"
    INDEX 01 00:00:00

  TRACK 02 AUDIO
    TITLE "RADIO LUXEMBOURG"
    PERFORMER "TAZ TAYLOR BAND : Welcome to America! (feat. Graham Bonnet)"
    INDEX 01 11:44:52

  TRACK 03 AUDIO
    TITLE "NOTHING ELSE MATTERS"
    PERFORMER "PAULA FERNANDES : Dust in the Wind"
    INDEX 01 15:12:03

  TRACK 04 AUDIO
    TITLE "WHEEL OF FORTUNE"
    PERFORMER "DARK MOOR : Tarot"
    INDEX 01 22:13:09

  TRACK 05 AUDIO
    TITLE "BOOK OF LIFE"
    PERFORMER "PRIDE OF LIONS : The Roaring of Dreams"
    INDEX 01 26:52:05

  TRACK 06 AUDIO
    TITLE "HUMANAUT"
    PERFORMER "MNEMIC : Passenger"
    INDEX 01 33:49:06

  TRACK 07 AUDIO
    TITLE "Classic rock: COLD AS ICE"
    PERFORMER "FOREIGNER : Foreigner (Digitally remastered)"
    INDEX 01 53:23:20


SEO [PR] おまとめローン 冷え性対策 坂本龍馬 動画掲示板 レンタルサーバー SEO