[ オンエアリストに戻る ]
TITLE "Heavy Metal Syndicate #832"
FILE "2007-01-21.mp3" WAVE
  TRACK 01 AUDIO
    TITLE "I'M IN HEAVEN"
    PERFORMER "THUNDER : Robert Johnson's Tombstone"
    INDEX 01 00:00:00

  TRACK 02 AUDIO
    TITLE "INTUITION"
    PERFORMER "DRAGONLAND : Astronomy"
    INDEX 01 13:35:40

  TRACK 03 AUDIO
    TITLE "COLD SWEAT / 新春 福袋争奪俳句大会"
    PERFORMER "JORN : Unlocking the Past"
    INDEX 01 17:20:66

  TRACK 04 AUDIO
    TITLE "ALIVE"
    PERFORMER "MEAT LOAF : Bat Out of Hell III - The Monster Is Loose"
    INDEX 01 44:25:46

  TRACK 05 AUDIO
    TITLE "Classic rock: ROLLING WITH MY BABY (7" Version)"
    PERFORMER "SILVERHEAD : Purple People (Compilation) (Digitally remastered)"
    INDEX 01 52:37:16


SEO [PR] おまとめローン 冷え性対策 坂本龍馬 動画掲示板 レンタルサーバー SEO