[ オンエアリストに戻る ]
TITLE "Heavy Metal Syndicate #831"
FILE "2007-01-14.mp3" WAVE
  TRACK 01 AUDIO
    TITLE "BURN - STORMBRINGER (Live 2006)"
    PERFORMER "WHITESNAKE : Live - In the Shadow of the Blues"
    INDEX 01 00:00:00

  TRACK 02 AUDIO
    TITLE "NEVER TOO LATE"
    PERFORMER "ANSWER : Rise"
    INDEX 01 14:08:60

  TRACK 03 AUDIO
    TITLE "SLIP INSIDE"
    PERFORMER "VOODOO SIX : Feed My Soul"
    INDEX 01 18:49:50

  TRACK 04 AUDIO
    TITLE "TOF - THE TRINITY"
    PERFORMER "THERION : Gothic Kabbalah"
    INDEX 01 25:38:60

  TRACK 05 AUDIO
    TITLE "THE NECROGEDDON"
    PERFORMER "ANAAL NATHRAKH : Eschaton"
    INDEX 01 33:55:40

  TRACK 06 AUDIO
    TITLE "Classic rock: (DON'T FEAR) THE REAPER"
    PERFORMER "BLUE OYSTER CULT : Agents of Fortune (Digitally remastered)"
    INDEX 01 50:58:30


SEO [PR] おまとめローン 冷え性対策 坂本龍馬 動画掲示板 レンタルサーバー SEO