[ オンエアリストに戻る ]
TITLE "Heavy Metal Syndicate #830"
FILE "2007-01-07.mp3" WAVE
  TRACK 01 AUDIO
    TITLE "BAD BOYS (Live 2005)"
    PERFORMER "WHITESNAKE : Live - In the Shadow of the Blues"
    INDEX 01 00:00:00

  TRACK 02 AUDIO
    TITLE "Introduction: 春の海"
    PERFORMER "箏:宮城道雄 尺八:吉田晴風 : 春の海 (single)"
    INDEX 01 06:56:13

  TRACK 03 AUDIO
    TITLE "IT'S SO SIMPLE"
    PERFORMER "SAOSIN : Saosin"
    INDEX 01 13:07:20

  TRACK 04 AUDIO
    TITLE "FEED MY SOUL"
    PERFORMER "VOODOO SIX : Feed My Soul"
    INDEX 01 16:45:11

  TRACK 05 AUDIO
    TITLE "IN FROM THE DARK"
    PERFORMER "SILENT FORCE : Walk the Earth"
    INDEX 01 22:59:30

  TRACK 06 AUDIO
    TITLE "LOUDER"
    PERFORMER "BABYLON BOMBS : Doin' You Nasty"
    INDEX 01 29:13:58

  TRACK 07 AUDIO
    TITLE "GOTHIC KABBALAH"
    PERFORMER "THERION : Gothic Kabbalah"
    INDEX 01 34:01:70

  TRACK 08 AUDIO
    TITLE "THE PARTY AIN'T OVER YET"
    PERFORMER "STATUS QUO : The Party Ain't Over Yet  (released 2005)"
    INDEX 01 49:50:61


SEO [PR] おまとめローン 冷え性対策 坂本龍馬 動画掲示板 レンタルサーバー SEO