[ オンエアリストに戻る ]
TITLE "Heavy Metal Syndicate #829"
FILE "2006-12-31.mp3" WAVE
  TRACK 01 AUDIO
    TITLE "BEETHOVEN'S NIGHTMARE"
    PERFORMER "DRAGONLAND : Astronomy"
    INDEX 01 00:00:00

  TRACK 02 AUDIO
    TITLE "RED SECTOR A (Live 1984)"
    PERFORMER "RUSH : Rush Replay x3 - Grace Under Pressure Tour Soundtrack"
    INDEX 01 13:09:20

  TRACK 03 AUDIO
    TITLE "CRAWL"
    PERFORMER "VOODOO SIX : Feed My Soul"
    INDEX 01 21:33:70

  TRACK 04 AUDIO
    TITLE "SLEEPERS"
    PERFORMER "SAOSIN : Saosin"
    INDEX 01 27:37:11

  TRACK 05 AUDIO
    TITLE "THE ENEMY WITHIN"
    PERFORMER "CODE : The Enemy Within"
    INDEX 01 32:19:10

  TRACK 06 AUDIO
    TITLE "Classic rock: HEAVEN AND HELL"
    PERFORMER "BLACK SABBATH : Heaven and Hell (Digitally remastered)"
    INDEX 01 48:42:21


SEO [PR] おまとめローン 冷え性対策 坂本龍馬 動画掲示板 レンタルサーバー SEO