[ オンエアリストに戻る ]
TITLE "Heavy Metal Syndicate #828"
FILE "2006-12-24.mp3" WAVE
  TRACK 01 AUDIO
    TITLE "READY TO ROCK"
    PERFORMER "WHITESNAKE : Live - In the Shadow of the Blues"
    INDEX 01 00:00:00

  TRACK 02 AUDIO
    TITLE "IF YOU WANT ME"
    PERFORMER "WHITESNAKE : Live - In the Shadow of the Blues"
    INDEX 01 11:03:70

  TRACK 03 AUDIO
    TITLE "ALL I WANT IS YOU"
    PERFORMER "WHITESNAKE : Live - In the Shadow of the Blues"
    INDEX 01 15:13:49

  TRACK 04 AUDIO
    TITLE "MAN AND MACHINE"
    PERFORMER "SILENT FORCE : Walk the Earth"
    INDEX 01 21:15:18

  TRACK 05 AUDIO
    TITLE "BE WHAT YOU WANT"
    PERFORMER "ANSWER : Rise"
    INDEX 01 26:40:06

  TRACK 06 AUDIO
    TITLE "THE DESTROYING ANGEL"
    PERFORMER "ANAAL NATHRAKH : Eschaton"
    INDEX 01 33:07:54

  TRACK 07 AUDIO
    TITLE "RUBY TUESDAY (Live 2002)"
    PERFORMER "CORRS : Dreams - The Ultimate Corrs Collection (feat. Ron Wood)"
    INDEX 01 52:27:60


SEO [PR] おまとめローン 冷え性対策 坂本龍馬 動画掲示板 レンタルサーバー SEO