[ オンエアリストに戻る ]
TITLE "Heavy Metal Syndicate #827"
FILE "2006-12-17.mp3" WAVE
  TRACK 01 AUDIO
    TITLE "DOG"
    PERFORMER "WHITESNAKE : Live - In the Shadow of the Blues"
    INDEX 01 00:00:00

  TRACK 02 AUDIO
    TITLE "COME FOLLOW ME"
    PERFORMER "ANSWER : Rise"
    INDEX 01 14:53:29

  TRACK 03 AUDIO
    TITLE "HARD BEING ME"
    PERFORMER "UFO : The Monkey Puzzle"
    INDEX 01 19:11:66

  TRACK 04 AUDIO
    TITLE "LOVE AIN'T NO STRANGER"
    PERFORMER "WINTERBORN : Cold Reality"
    INDEX 01 23:47:36

  TRACK 05 AUDIO
    TITLE "IT'S ALL COMING BACK TO ME NOW (single edit)"
    PERFORMER "MEAT LOAF : Bat Out of Hell III - The Monster Is Loose (feat. Marion Raven)"
    INDEX 01 31:15:14

  TRACK 06 AUDIO
    TITLE "THE SPIRIT OF RADIO (Live 1984)"
    PERFORMER "RUSH : Rush Replay x3 - Grace Under Pressure Tour Soundtrack"
    INDEX 01 37:40:03

  TRACK 07 AUDIO
    TITLE "Classic rock: WRING THAT NECK"
    PERFORMER "DEEP PURPLE : The Book of Taliesyn (Digitally remastered)"
    INDEX 01 50:18:29


SEO [PR] おまとめローン 冷え性対策 坂本龍馬 動画掲示板 レンタルサーバー SEO