[ オンエアリストに戻る ]
TITLE "Heavy Metal Syndicate #826"
FILE "2006-12-10.mp3" WAVE
  TRACK 01 AUDIO
    TITLE "UNDER THE SKY"
    PERFORMER "ANSWER : Rise"
    INDEX 01 00:00:00

  TRACK 02 AUDIO
    TITLE "WHEN GOD CAN'T WAIT"
    PERFORMER "SKID ROW : Revolutions per Minute"
    INDEX 01 13:16:40

  TRACK 03 AUDIO
    TITLE "PARALYZED"
    PERFORMER "INTO ETERNITY : The Scattering of Ashes"
    INDEX 01 16:34:57

  TRACK 04 AUDIO
    TITLE "RUNNING THROUGH THE FIRE"
    PERFORMER "SILENT FORCE : Walk the Earth"
    INDEX 01 21:39:20

  TRACK 05 AUDIO
    TITLE "AMERICAN GIRL"
    PERFORMER "LAST AUTUMN'S DREAM : Saturn Skyline"
    INDEX 01 26:35:56

  TRACK 06 AUDIO
    TITLE "SNOWDRIFTS"
    PERFORMER "DARK LUNACY : The Diarist (feat. Amelia)"
    INDEX 01 33:29:39

  TRACK 07 AUDIO
    TITLE "Classic rock: THE HEAT GOES ON"
    PERFORMER "ASIA : Alpha"
    INDEX 01 50:14:02


SEO [PR] おまとめローン 冷え性対策 坂本龍馬 動画掲示板 レンタルサーバー SEO