[ オンエアリストに戻る ]
TITLE "Heavy Metal Syndicate #825"
FILE "2006-12-03.mp3" WAVE
  TRACK 01 AUDIO
    TITLE "ROBERT JOHNSON'S TOMBSTONE"
    PERFORMER "THUNDER : Robert Johnson's Tombstone"
    INDEX 01 00:00:00

  TRACK 02 AUDIO
    TITLE "WORLD CRUISE"
    PERFORMER "UFO : The Monkey Puzzle"
    INDEX 01 14:09:69

  TRACK 03 AUDIO
    TITLE "LOVE GUN (Live 1999)"
    PERFORMER "KISS : Kiss Alive! 1975-2000 (Alive - The Millennium Concert)"
    INDEX 01 18:32:43

  TRACK 04 AUDIO
    TITLE "WELCOME TO THE BLACK PARADE"
    PERFORMER "MY CHEMICAL ROMANCE : The Black Parade"
    INDEX 01 25:50:24

  TRACK 05 AUDIO
    TITLE "LEGACY OF BRUTALITY"
    PERFORMER "TERRORIZER : Darker Days Ahead"
    INDEX 01 39:21:39

  TRACK 06 AUDIO
    TITLE "Classic rock: SISTER JANE"
    PERFORMER "TAI PHONG : Tai Phong (Digitally remastered)"
    INDEX 01 52:05:19


SEO [PR] おまとめローン 冷え性対策 坂本龍馬 動画掲示板 レンタルサーバー SEO