[ オンエアリストに戻る ]
TITLE "Heavy Metal Syndicate #824"
FILE "2006-11-26.mp3" WAVE
  TRACK 01 AUDIO
    TITLE "ANOTHER DICK IN THE SYSTEM"
    PERFORMER "SKID ROW : Revolutions per Minute"
    INDEX 01 00:00:00

  TRACK 02 AUDIO
    TITLE "SURROUNDED BY NIGHT"
    PERFORMER "INTO ETERNITY : The Scattering of Ashes"
    INDEX 01 13:19:53

  TRACK 03 AUDIO
    TITLE "PAGES"
    PERFORMER "LAST AUTUMN'S DREAM : Saturn Skyline"
    INDEX 01 19:41:60

  TRACK 04 AUDIO
    TITLE "WILDHEART"
    PERFORMER "WINTERBORN : Cold Reality"
    INDEX 01 25:51:19

  TRACK 05 AUDIO
    TITLE "WE WISH YOU A MERRY CHRISTMAS"
    PERFORMER "BLACKMORE'S NIGHT : Winter Carols"
    INDEX 01 32:22:05

  TRACK 06 AUDIO
    TITLE "AURORA"
    PERFORMER "DARK LUNACY : The Diarist"
    INDEX 01 36:30:61

  TRACK 07 AUDIO
    TITLE "Classic rock: IT ALL DEPENDS"
    PERFORMER "SCORPIONS : Lonesome Crow (Digitally remastered)"
    INDEX 01 52:48:21


SEO [PR] おまとめローン 冷え性対策 坂本龍馬 動画掲示板 レンタルサーバー SEO