[ オンエアリストに戻る ]
TITLE "Heavy Metal Syndicate #823"
FILE "2006-11-19.mp3" WAVE
  TRACK 01 AUDIO
    TITLE "PSYCHO CIRCUS (Live 1999)"
    PERFORMER "KISS : Kiss Alive! 1975-2000 (Alive - The Millennium Concert)"
    INDEX 01 00:00:00

  TRACK 02 AUDIO
    TITLE "SEVERE EMOTIONAL DISTRESS"
    PERFORMER "INTO ETERNITY : The Scattering of Ashes"
    INDEX 01 16:07:54

  TRACK 03 AUDIO
    TITLE "HARK THE HERALD ANGELS SING / COME ALL YE FAITHFUL"
    PERFORMER "BLACKMORE'S NIGHT : Winter Carols"
    INDEX 01 24:39:07

  TRACK 04 AUDIO
    TITLE "BRAVE YOUNG NEW BREED"
    PERFORMER "PRETTY MAIDS : Wake Up to the Real World"
    INDEX 01 30:16:13

  TRACK 05 AUDIO
    TITLE "DEAD!"
    PERFORMER "MY CHEMICAL ROMANCE : The Black Parade"
    INDEX 01 37:17:18

  TRACK 06 AUDIO
    TITLE "Classic rock: SPEAK (Live 1990)"
    PERFORMER "QUEENSRYCHE : Operation : Mindcrime (2CD edition)"
    INDEX 01 52:24:14


SEO [PR] おまとめローン 冷え性対策 坂本龍馬 動画掲示板 レンタルサーバー SEO