[ オンエアリストに戻る ]
TITLE "Heavy Metal Syndicate #822"
FILE "2006-11-12.mp3" WAVE
  TRACK 01 AUDIO
    TITLE "REALITY"
    PERFORMER "HAREM SCAREM : Human Nature"
    INDEX 01 00:00:00

  TRACK 02 AUDIO
    TITLE "WHY DIE FOR A LIE"
    PERFORMER "PRETTY MAIDS : Wake Up to the Real World"
    INDEX 01 10:46:41

  TRACK 03 AUDIO
    TITLE "PERFECT STRANGERS"
    PERFORMER "PRETTY MAIDS : Wake Up to the Real World"
    INDEX 01 15:01:40

  TRACK 04 AUDIO
    TITLE "COMMUNICATION"
    PERFORMER "COSMO : Alien"
    INDEX 01 21:23:10

  TRACK 05 AUDIO
    TITLE "I WILL NEVER"
    PERFORMER "DREAM EVIL : United"
    INDEX 01 25:43:53

  TRACK 06 AUDIO
    TITLE "THE MIDNIGHT GROTESQUE"
    PERFORMER "AXAMENTA : Ever-Arch-I-Tech-Ture"
    INDEX 01 32:39:43

  TRACK 07 AUDIO
    TITLE "Classic rock: VARIATIONS ON A THEME BY ERIK SATIE (1st MOVEMENT) - (Adapted from 'Trois Gymnopedies')"
    PERFORMER "BLOOD, SWEAT & TEARS : Blood, Sweat & Tears"
    INDEX 01 49:55:27

  TRACK 08 AUDIO
    TITLE "Classic rock: YOU'VE MADE ME SO VERY HAPPY"
    PERFORMER "BLOOD, SWEAT & TEARS : Blood, Sweat & Tears"
    INDEX 01 51:24:24


SEO [PR] おまとめローン 冷え性対策 坂本龍馬 動画掲示板 レンタルサーバー SEO