[ オンエアリストに戻る ]
TITLE "Heavy Metal Syndicate #821"
FILE "2006-11-05.mp3" WAVE
  TRACK 01 AUDIO
    TITLE "ALL IN THE NAME OF LOVE"
    PERFORMER "PRETTY MAIDS : Wake Up to the Real World"
    INDEX 01 00:00:00

  TRACK 02 AUDIO
    TITLE "BLIND EVIL"
    PERFORMER "DREAM EVIL : United"
    INDEX 01 08:23:21

  TRACK 03 AUDIO
    TITLE "NEXT TIME AROUND"
    PERFORMER "HAREM SCAREM : Human Nature"
    INDEX 01 13:23:71

  TRACK 04 AUDIO
    TITLE "THE FLOOD"
    PERFORMER "HAUNTED : The Dead Eye"
    INDEX 01 19:04:01

  TRACK 05 AUDIO
    TITLE "LOVING YOU WITHOUT YOU NOW"
    PERFORMER "PAUL STANLEY : Live to Win"
    INDEX 01 23:50:56

  TRACK 06 AUDIO
    TITLE "NAKED TRUTH"
    PERFORMER "HEARSE : In These Veins"
    INDEX 01 35:16:64

  TRACK 07 AUDIO
    TITLE "Classic rock: LIGHTS"
    PERFORMER "JOURNEY : Infinity (Digitally remastered)"
    INDEX 01 52:38:64


SEO [PR] おまとめローン 冷え性対策 坂本龍馬 動画掲示板 レンタルサーバー SEO