[ オンエアリストに戻る ]
TITLE "Heavy Metal Syndicate #820"
FILE "2006-10-29.mp3" WAVE
  TRACK 01 AUDIO
    TITLE "HALLOWED BE THY NAME (Radio 1 'Legends' Session) (Live 2005)"
    PERFORMER "IRON MAIDEN : The Reincarnation of Benjamin Breeg (CD single)"
    INDEX 01 00:00:00

  TRACK 02 AUDIO
    TITLE "DEVIL SINGS THE BLUES"
    PERFORMER "EUROPE : Secret Society"
    INDEX 01 15:03:57

  TRACK 03 AUDIO
    TITLE "CENTER OF THE UNIVERSE (Live 2006)"
    PERFORMER "KAMELOT : One Cold Winter's Night"
    INDEX 01 20:52:54

  TRACK 04 AUDIO
    TITLE "SURRENDER (Live 2005)"
    PERFORMER "ROYAL HUNT : Live 2006"
    INDEX 01 26:52:10

  TRACK 05 AUDIO
    TITLE "THE MEDICATION"
    PERFORMER "HAUNTED : The Dead Eye"
    INDEX 01 32:15:65

  TRACK 06 AUDIO
    TITLE "Classic rock: LOVE TO LOVE"
    PERFORMER "UFO : Lights Out (Digitally remastered)"
    INDEX 01 48:19:23


SEO [PR] おまとめローン 冷え性対策 坂本龍馬 動画掲示板 レンタルサーバー SEO