[ オンエアリストに戻る ]
TITLE "Heavy Metal Syndicate #819"
FILE "2006-10-22.mp3" WAVE
  TRACK 01 AUDIO
    TITLE "SALVATION: SUICIDE"
    PERFORMER "ANGRA : Aurora Consurgens"
    INDEX 01 00:00:00

  TRACK 02 AUDIO
    TITLE "THE FIRE BURNS FOREVER"
    PERFORMER "HAMMERFALL : Threshold"
    INDEX 01 14:39:15

  TRACK 03 AUDIO
    TITLE "FIRE! BATTLE! IN METAL!"
    PERFORMER "DREAM EVIL : United"
    INDEX 01 18:10:33

  TRACK 04 AUDIO
    TITLE "SEDONA SUNRISE"
    PERFORMER "AEROSMITH : The Very Best of Aerosmith - Devil's Got a New Disguise"
    INDEX 01 22:46:09

  TRACK 05 AUDIO
    TITLE "WHERE ANGELS DARE"
    PERFORMER "PAUL STANLEY : Live to Win"
    INDEX 01 29:08:32

  TRACK 06 AUDIO
    TITLE "INTOXICATION"
    PERFORMER "HEARSE : In These Veins"
    INDEX 01 34:51:26

  TRACK 07 AUDIO
    TITLE "Classic rock: ALL THE WAY FROM MEMPHIS"
    PERFORMER "CONTRABAND : Contraband"
    INDEX 01 52:03:40


SEO [PR] おまとめローン 冷え性対策 坂本龍馬 動画掲示板 レンタルサーバー SEO